HqCollect.me

[Brazzers Exxtra] - Angela White, Bridgette B & Ava Addams - Chasing That Big D (2016-11-28) [720p] (3.33 GB)

[Brazzers Exxtra] - Angela White, Bridgette B & Ava Addams - Chasing That Big D (2016-11-28) [720p]

Filelist

Title Size
BrazzersExxtra - Angela White, Ava Addams, Bridgette B (Chasing That Big D)_720p_8000.mp4 BrazzersExxtra - Angela White, Ava Addams, Bridgette B (Chasing That Big D)_720p_8000.mp4 3.18 GB

Description


Credit to Spartakus for the screens & description from the 1080p upload here torrents.php?id=384523

Brazzers Exxtra

Date: 2016-11-28
Chasing That Big D
Keiran Lee, Bridgette B, Ava Addams & Angela White

Angela, Ava and Bridgette are enjoying their morning jog when they spot a big dick flopping around in grey sweatpants. Not ones to pass up a perfect cock these stacked sluts chase after Keiran and are soon joined by a herd of equally horny women. Keiran reaches home and hops in the shower, clueless that he's being hunted. But it's not long before he's attacked by three horny porn stars determined to take his dick!

Angela gives Keiran an oeal treatment in the shower; handjob, deepthroat, ball sucking & face fucking. Bridgette joins in on the oral fun and Angela licks his ass. In the bedroom, Ava, Bridgette & Angela gives Kiran a blowjob, sit on his face and Ava gives him a titfuck. Angela rides him in reverse cowgirl and is fucked in missionary. Keiran licks her ass before Ava mounts him in cowgirl and Angela does pussy-to-mouth. The girls takes turns getting fucked in various positions (missionary, cowgirl, reverse cowgirl & doggy style) and also licking, rubbing and fingering each others pussy and ass at will. In the end, they give him a handjob that makes his cock erupt in their mouths and they spit and swap the cum between then. Scene wraps with an epic segment in the shower with all the girls soaping up and rubbing their tits together in slow motion!

file info: Show

General
Complete name : /BrazzersExxtra - Angela White, Ava Addams, Bridgette B (Chasing That Big D)_720p_8000.mp4
Format : MPEG-4
Format profile : Base Media
Codec ID : isom
File size : 3.18 GiB
Duration : 56mn 1s
Overall bit rate : 8 132 Kbps
Writing application : Lavf57.28.100

Video
ID : 1
Format : AVC
Format/Info : Advanced Video Codec
Format profile : High@L4.1
Format settings, CABAC : Yes
Format settings, ReFrames : 5 frames
Codec ID : avc1
Codec ID/Info : Advanced Video Coding
Duration : 56mn 1s
Bit rate : 8 000 Kbps
Width : 1 280 pixels
Height : 720 pixels
Display aspect ratio : 16:9
Frame rate mode : Constant
Frame rate : 23.976 fps
Color space : YUV
Chroma subsampling : 4:2:0
Bit depth : 8 bits
Scan type : Progressive
Bits/(Pixel*Frame) : 0.362
Stream size : 3.13 GiB (98%)
Writing library : x264 core 148 r2665 a01e339
Encoding settings : cabac=1 / ref=5 / deblock=1:0:0 / analyse=0x3:0x113 / me=umh / subme=8 / psy=1 / psy_rd=1.00:0.00 / mixed_ref=1 / me_range=16 / chroma_me=1 / trellis=1 / 8x8dct=1 / cqm=0 / deadzone=21,11 / fast_pskip=1 / chroma_qp_offset=-2 / threads=18 / lookahead_threads=3 / sliced_threads=0 / nr=0 / decimate=1 / interlaced=0 / bluray_compat=0 / constrained_intra=0 / bframes=3 / b_pyramid=2 / b_adapt=2 / b_bias=0 / direct=3 / weightb=1 / open_gop=0 / weightp=2 / keyint=60 / keyint_min=6 / scenecut=40 / intra_refresh=0 / rc_lookahead=50 / rc=abr / mbtree=1 / bitrate=8000 / ratetol=1.0 / qcomp=0.60 / qpmin=0 / qpmax=69 / qpstep=4 / ip_ratio=1.40 / aq=1:1.00
Language : English
Tagged date : UTC 2016-11-25 09:31:39

Audio
ID : 2
Format : AAC
Format/Info : Advanced Audio Codec
Format profile : LC
Codec ID : 40
Duration : 56mn 1s
Bit rate mode : Constant
Bit rate : 128 Kbps
Channel(s) : 2 channels
Channel positions : Front: L R
Sampling rate : 48.0 KHz
Compression mode : Lossy
Stream size : 51.5 MiB (2%)
Language : English
Tagged date : UTC 2016-11-25 09:31:39