[YoungBusty] Lizz [The Rat Bastards] (1.08 GB)

[YoungBusty]  Lizz  [The Rat Bastards]

Filelist

Title Size
lizz.mp4
lizz.mp4 1.03 GB

Description

For fuck's sake...!!!

neshindmitriy...!!!

STOP MASTURBATING GODDAMIT...!!!

you little bastard...!!!

* The Rat Bastards Present *

Young Busty

YoungBusty videos feature exactly that, young busty babes. Watch hot teen girls with big tits get fucked in hardcore xxx action. Watch them tit fuck guys and get a warm load on their juicy melons like you've never seen before. These girls love their boobs and love to show them off...  
...

Lizz

Published: 17.02.2016 Duration: 18 min
Niches: Brunettes, Hardcore, Masturbation, Babe, Facial, Handjob, Blowjob, Cumshot
Performer(s): Lizz Taylor
Site: YoungBusty

General
Complete name                            : lizz.mp4
Format                                   : MPEG-4
Format profile                           : Base Media / Version 2
Codec ID                                 : mp42 (isom/mp41/avc1)
File size                                : 1.03 GiB
Duration                                 : 18mn 10s
Overall bit rate mode                    : Variable
Overall bit rate                         : 8 133 Kbps
Encoded date                             : UTC 2016-01-26 18:50:15
Tagged date                              : UTC 2016-01-26 18:50:15
Writing library                          : Apple QuickTime

Video
ID                                       : 1
Format                                   : AVC
Format/Info                              : Advanced Video Codec
Format profile                           : Main@L4
Format settings, CABAC                   : No
Format settings, ReFrames                : 3 frames
Format settings, GOP                     : M=1, N=2
Codec ID                                 : avc1
Codec ID/Info                            : Advanced Video Coding
Duration                                 : 18mn 10s
Source duration                          : 18mn 10s
Bit rate mode                            : Variable
Bit rate                                 : 7 674 Kbps
Maximum bit rate                         : 8 001 Kbps
Width                                    : 1 920 pixels
Height                                   : 1 080 pixels
Display aspect ratio                     : 16:9
Frame rate mode                          : Constant
Frame rate                               : 25.000 fps
Standard                                 : Component
Color space                              : YUV
Chroma subsampling                       : 4:2:0
Bit depth                                : 8 bits
Scan type                                : Progressive
Bits/(Pixel*Frame)                       : 0.148
Stream size                              : 998 MiB (94%)
Source stream size                       : 1.02 GiB (98%)
Language                                 : English
Encoded date                             : UTC 2016-01-26 18:50:15
Tagged date                              : UTC 2016-01-26 18:50:15
Color range                              : Limited
mdhd_Duration                            : 1090480

Audio
ID                                       : 2
Format                                   : AAC
Format/Info                              : Advanced Audio Codec
Format profile                           : LC
Codec ID                                 : 40
Duration                                 : 18mn 10s
Bit rate mode                            : Variable
Bit rate                                 : 128 Kbps
Maximum bit rate                         : 133 Kbps
Channel(s)                               : 2 channels
Channel positions                        : Front: L R
Sampling rate                            : 44.1 KHz
Frame rate                               : 43.066 fps (1024 spf)
Compression mode                         : Lossy
Stream size                              : 16.6 MiB (2%)
Language                                 : English
Encoded date                             : UTC 2016-01-26 18:50:15
Tagged date                              : UTC 2016-01-26 18:50:15

Other #1
ID                                       : 3
Type                                     : Object description
Format                                   : System Core
Codec ID                                 : 2
Duration                                 : 18mn 10s
Language                                 : English
Encoded date                             : UTC 2016-01-26 18:50:15
Tagged date                              : UTC 2016-01-26 18:50:15
mdhd_Duration                            : 1000

Other #2
ID                                       : 4
Type                                     : Scene description
Format                                   : System Core
Codec ID                                 : 2
Duration                                 : 18mn 10s
Language                                 : English
Encoded date                             : UTC 2016-01-26 18:50:15
Tagged date                              : UTC 2016-01-26 18:50:15
mdhd_Duration                            : 1000

* in this video we will be treated to scenes of oral blow job, some pussy munching, some cowgirl style fucking, and they throw in some doggy style as well as your basic, vanilla missionary style fucking too...