[YoungBusty] Latoya 2 [The Rat Bastards] (1.47 GB)

[YoungBusty]  Latoya 2  [The Rat Bastards]

Filelist

Title Size
latoya2.mp4 latoya2.mp4 1.4 GB

Description

For fuck's sake...!!!

neshindmitriy...!!!

STOP MASTURBATING GODDAMIT...!!!

you little bastard...!!!

* The Rat Bastards Present *

Young Busty

YoungBusty videos feature exactly that, young busty babes. Watch hot teen girls with big tits get fucked in hardcore xxx action. Watch them tit fuck guys and get a warm load on their juicy melons like you've never seen before. These girls love their boobs and love to show them off...  
...

Latoya 2

Published: 09.05.2016 Duration: 25 min
Niches: Brunettes, Hardcore, Masturbation, Babe, Facial, Handjob, Blowjob, Cumshot, Threesome
Performer(s): Latoya A
Site: YoungBusty

General
Complete name                            : latoya2.mp4
Format                                   : MPEG-4
Format profile                           : Base Media / Version 2
Codec ID                                 : mp42 (isom/mp41/avc1)
File size                                : 1.40 GiB
Duration                                 : 24mn 39s
Overall bit rate mode                    : Variable
Overall bit rate                         : 8 131 Kbps
Encoded date                             : UTC 2016-04-22 17:32:06
Tagged date                              : UTC 2016-04-22 17:32:06
Writing library                          : Apple QuickTime

Video
ID                                       : 1
Format                                   : AVC
Format/Info                              : Advanced Video Codec
Format profile                           : Main@L4
Format settings, CABAC                   : No
Format settings, ReFrames                : 3 frames
Format settings, GOP                     : M=2, N=100
Codec ID                                 : avc1
Codec ID/Info                            : Advanced Video Coding
Duration                                 : 24mn 39s
Source duration                          : 24mn 39s
Bit rate mode                            : Variable
Bit rate                                 : 7 672 Kbps
Maximum bit rate                         : 8 001 Kbps
Width                                    : 1 920 pixels
Height                                   : 1 080 pixels
Display aspect ratio                     : 16:9
Frame rate mode                          : Constant
Frame rate                               : 23.976 (23976/1000) fps
Standard                                 : Component
Color space                              : YUV
Chroma subsampling                       : 4:2:0
Bit depth                                : 8 bits
Scan type                                : Progressive
Bits/(Pixel*Frame)                       : 0.154
Stream size                              : 1.32 GiB (94%)
Source stream size                       : 1.38 GiB (98%)
Language                                 : English
Encoded date                             : UTC 2016-04-22 17:32:06
Tagged date                              : UTC 2016-04-22 17:32:06
Color range                              : Limited
mdhd_Duration                            : 1479228

Audio
ID                                       : 2
Format                                   : AAC
Format/Info                              : Advanced Audio Codec
Format profile                           : LC
Codec ID                                 : 40
Duration                                 : 24mn 39s
Bit rate mode                            : Variable
Bit rate                                 : 128 Kbps
Maximum bit rate                         : 135 Kbps
Channel(s)                               : 2 channels
Channel positions                        : Front: L R
Sampling rate                            : 44.1 KHz
Frame rate                               : 43.066 fps (1024 spf)
Compression mode                         : Lossy
Stream size                              : 22.6 MiB (2%)
Language                                 : English
Encoded date                             : UTC 2016-04-22 17:32:06
Tagged date                              : UTC 2016-04-22 17:32:06

Other #1
ID                                       : 3
Type                                     : Object description
Format                                   : System Core
Codec ID                                 : 2
Duration                                 : 24mn 39s
Language                                 : English
Encoded date                             : UTC 2016-04-22 17:32:06
Tagged date                              : UTC 2016-04-22 17:32:06
mdhd_Duration                            : 1000

Other #2
ID                                       : 4
Type                                     : Scene description
Format                                   : System Core
Codec ID                                 : 2
Duration                                 : 24mn 39s
Language                                 : English
Encoded date                             : UTC 2016-04-22 17:32:06
Tagged date                              : UTC 2016-04-22 17:32:06
mdhd_Duration                            : 1000

* this video shows the trio hanging out and we are treated to scenes of pussy munching, pussy licking, oral blow job action, some cowgirl, some reverse cowgirl action, and of course, some vanilla missionary fucking is thrown into the mix...