[YoungBusty] Jess [The Rat Bastards] (1.8 GB)

[YoungBusty]  Jess  [The Rat Bastards]

Filelist

Title Size
jess.mp4 jess.mp4 1.72 GB

Description

For fuck's sake...!!!

neshindmitriy...!!!

STOP MASTURBATING GODDAMIT...!!!

you little bastard...!!!

* The Rat Bastards Present *

Young Busty

YoungBusty videos feature exactly that, young busty babes. Watch hot teen girls with big tits get fucked in hardcore xxx action. Watch them tit fuck guys and get a warm load on their juicy melons like you've never seen before. These girls love their boobs and love to show them off...  
...

Jess

Published: 07.03.2016 Duration: 20 min
Niches: Masturbation, Teens, Solo Action, Big Tits, Redhead
Performer(s): Jess B
Site: YoungBusty

General
Complete name                            : jess.mp4
Format                                   : MPEG-4
Format profile                           : Base Media / Version 2
Codec ID                                 : mp42 (mp42/mp41)
File size                                : 1.72 GiB
Duration                                 : 20mn 9s
Overall bit rate mode                    : Variable
Overall bit rate                         : 12.2 Mbps
Encoded date                             : UTC 2016-03-01 11:31:48
Tagged date                              : UTC 2016-03-01 11:33:12
©TIM                                     : 00:00:00:00
©TSC                                     : 25
©TSZ                                     : 1

Video
ID                                       : 1
Format                                   : AVC
Format/Info                              : Advanced Video Codec
Format profile                           : Main@L4.2
Format settings, CABAC                   : Yes
Format settings, ReFrames                : 3 frames
Codec ID                                 : avc1
Codec ID/Info                            : Advanced Video Coding
Duration                                 : 20mn 9s
Bit rate                                 : 12.0 Mbps
Width                                    : 1 920 pixels
Height                                   : 1 080 pixels
Display aspect ratio                     : 16:9
Frame rate mode                          : Constant
Frame rate                               : 25.000 fps
Standard                                 : PAL
Color space                              : YUV
Chroma subsampling                       : 4:2:0
Bit depth                                : 8 bits
Scan type                                : Progressive
Bits/(Pixel*Frame)                       : 0.231
Stream size                              : 1.69 GiB (98%)
Language                                 : English
Encoded date                             : UTC 2016-03-01 11:31:48
Tagged date                              : UTC 2016-03-01 11:31:48
Color range                              : Limited

Audio
ID                                       : 2
Format                                   : AAC
Format/Info                              : Advanced Audio Codec
Format profile                           : LC
Codec ID                                 : 40
Duration                                 : 20mn 9s
Source duration                          : 20mn 9s
Bit rate mode                            : Variable
Bit rate                                 : 192 Kbps
Maximum bit rate                         : 285 Kbps
Channel(s)                               : 2 channels
Channel positions                        : Front: L R
Sampling rate                            : 48.0 KHz
Frame rate                               : 46.875 fps (1024 spf)
Compression mode                         : Lossy
Stream size                              : 27.3 MiB (2%)
Source stream size                       : 27.3 MiB (2%)
Language                                 : English
Encoded date                             : UTC 2016-03-01 11:31:48
Tagged date                              : UTC 2016-03-01 11:31:48
mdhd_Duration                            : 1209984

* this is a solo masturbation scene where we see some pussy rubbing and pussy fingering...  there is no sex...