[YoungBusty] Jaqueline 2 [The Rat Bastards] (1.57 GB)

[YoungBusty]  Jaqueline 2  [The Rat Bastards]

Filelist

Title Size
jacqueline2.mp4 jacqueline2.mp4 1.5 GB

Description

For fuck's sake...!!!

neshindmitriy...!!!

STOP MASTURBATING GODDAMIT...!!!

you little bastard...!!!

* The Rat Bastards Present *

Young Busty

YoungBusty videos feature exactly that, young busty babes. Watch hot teen girls with big tits get fucked in hardcore xxx action. Watch them tit fuck guys and get a warm load on their juicy melons like you've never seen before. These girls love their boobs and love to show them off...  
...

Jaqueline 2

[bPublished: 02.03.2016 Duration: 26 min
Niches: Brunettes, Lesbian, Masturbation, Shaved, Outdoor, Big Tits, Redhead
Performer(s): Jaqueline D, Sandra Z
Site: YoungBusty

[/b]

General
Complete name                            : jacqueline2.mp4
Format                                   : MPEG-4
Format profile                           : Base Media / Version 2
Codec ID                                 : mp42 (isom/mp41/avc1)
File size                                : 1.50 GiB
Duration                                 : 26mn 19s
Overall bit rate mode                    : Variable
Overall bit rate                         : 8 134 Kbps
Encoded date                             : UTC 2016-02-29 12:06:20
Tagged date                              : UTC 2016-02-29 12:06:20
Writing library                          : Apple QuickTime

Video
ID                                       : 1
Format                                   : AVC
Format/Info                              : Advanced Video Codec
Format profile                           : Main@L4
Format settings, CABAC                   : No
Format settings, ReFrames                : 3 frames
Format settings, GOP                     : M=2, N=100
Codec ID                                 : avc1
Codec ID/Info                            : Advanced Video Coding
Duration                                 : 26mn 19s
Source duration                          : 26mn 19s
Bit rate mode                            : Variable
Bit rate                                 : 7 675 Kbps
Maximum bit rate                         : 8 001 Kbps
Width                                    : 1 920 pixels
Height                                   : 1 080 pixels
Display aspect ratio                     : 16:9
Frame rate mode                          : Constant
Frame rate                               : 25.000 fps
Standard                                 : Component
Color space                              : YUV
Chroma subsampling                       : 4:2:0
Bit depth                                : 8 bits
Scan type                                : Progressive
Bits/(Pixel*Frame)                       : 0.148
Stream size                              : 1.41 GiB (94%)
Source stream size                       : 1.47 GiB (98%)
Language                                 : English
Encoded date                             : UTC 2016-02-29 12:06:20
Tagged date                              : UTC 2016-02-29 12:06:20
Color range                              : Limited
mdhd_Duration                            : 1579400

Audio
ID                                       : 2
Format                                   : AAC
Format/Info                              : Advanced Audio Codec
Format profile                           : LC
Codec ID                                 : 40
Duration                                 : 26mn 19s
Bit rate mode                            : Variable
Bit rate                                 : 128 Kbps
Maximum bit rate                         : 133 Kbps
Channel(s)                               : 2 channels
Channel positions                        : Front: L R
Sampling rate                            : 44.1 KHz
Frame rate                               : 43.066 fps (1024 spf)
Compression mode                         : Lossy
Stream size                              : 24.1 MiB (2%)
Language                                 : English
Encoded date                             : UTC 2016-02-29 12:06:20
Tagged date                              : UTC 2016-02-29 12:06:20

Other #1
ID                                       : 3
Type                                     : Object description
Format                                   : System Core
Codec ID                                 : 2
Duration                                 : 26mn 19s
Language                                 : English
Encoded date                             : UTC 2016-02-29 12:06:20
Tagged date                              : UTC 2016-02-29 12:06:20
mdhd_Duration                            : 1000

Other #2
ID                                       : 4
Type                                     : Scene description
Format                                   : System Core
Codec ID                                 : 2
Duration                                 : 26mn 19s
Language                                 : English
Encoded date                             : UTC 2016-02-29 12:06:20
Tagged date                              : UTC 2016-02-29 12:06:20
mdhd_Duration                            : 1000

*  Jaqueline and Sandra are playing on some swings...  this soon turns into playing with each other...  we are treated to scenes of pussy munching, pussy fingering, pussy licking...  

* gotta love lesbian scenes...