[YoungBusty] Chrissy Fox [The Rat Bastards] (2.37 GB)

[YoungBusty]  Chrissy Fox  [The Rat Bastards]

Filelist

Title Size
chrissy.fox.mp4 chrissy.fox.mp4 2.26 GB

Description

For fuck's sake...!!!

neshindmitriy...!!!

STOP MASTURBATING GODDAMIT...!!!

you little bastard...!!!

* The Rat Bastards Present *

Young Busty

YoungBusty videos feature exactly that, young busty babes. Watch hot teen girls with big tits get fucked in hardcore xxx action. Watch them tit fuck guys and get a warm load on their juicy melons like you've never seen before. These girls love their boobs and love to show them off...  
...

Chrissy Fox

Published: 26.02.2016 Duration: 27 min
Niches: Hardcore, Outdoor, Big Tits, Facial, Blowjob, Cumshot, Redhead, Old Young
Performer(s): Chrissy Fox
Site: YoungBusty

General
Complete name                            : chrissy.fox.mp4
Format                                   : MPEG-4
Format profile                           : Base Media / Version 2
Codec ID                                 : mp42 (mp42/mp41)
File size                                : 2.26 GiB
Duration                                 : 26mn 31s
Overall bit rate mode                    : Variable
Overall bit rate                         : 12.2 Mbps
Encoded date                             : UTC 2016-02-25 12:49:08
Tagged date                              : UTC 2016-02-25 12:50:48
©TIM                                     : 00:00:00:00
©TSC                                     : 25
©TSZ                                     : 1

Video
ID                                       : 1
Format                                   : AVC
Format/Info                              : Advanced Video Codec
Format profile                           : Main@L4.2
Format settings, CABAC                   : Yes
Format settings, ReFrames                : 3 frames
Codec ID                                 : avc1
Codec ID/Info                            : Advanced Video Coding
Duration                                 : 26mn 31s
Bit rate                                 : 12.0 Mbps
Width                                    : 1 920 pixels
Height                                   : 1 080 pixels
Display aspect ratio                     : 16:9
Frame rate mode                          : Constant
Frame rate                               : 25.000 fps
Standard                                 : PAL
Color space                              : YUV
Chroma subsampling                       : 4:2:0
Bit depth                                : 8 bits
Scan type                                : Progressive
Bits/(Pixel*Frame)                       : 0.231
Stream size                              : 2.22 GiB (98%)
Language                                 : English
Encoded date                             : UTC 2016-02-25 12:49:08
Tagged date                              : UTC 2016-02-25 12:49:08
Color range                              : Limited

Audio
ID                                       : 2
Format                                   : AAC
Format/Info                              : Advanced Audio Codec
Format profile                           : LC
Codec ID                                 : 40
Duration                                 : 26mn 31s
Source duration                          : 26mn 31s
Bit rate mode                            : Variable
Bit rate                                 : 192 Kbps
Maximum bit rate                         : 291 Kbps
Channel(s)                               : 2 channels
Channel positions                        : Front: L R
Sampling rate                            : 48.0 KHz
Frame rate                               : 46.875 fps (1024 spf)
Compression mode                         : Lossy
Stream size                              : 35.9 MiB (2%)
Source stream size                       : 35.9 MiB (2%)
Language                                 : English
Encoded date                             : UTC 2016-02-25 12:49:08
Tagged date                              : UTC 2016-02-25 12:49:08
mdhd_Duration                            : 1591637

*  this scene takes place outdoors, and we are treated to some pussy licking and pussy munching,  some pussy fingering, then they throw in some oral blow job action, then some cowgirl style fucking, some doggy, and of course, some vanilla missionary style fucking...