[YoungBusty] Chelsea [The Rat Bastards] (1.46 GB)

[YoungBusty]  Chelsea  [The Rat Bastards]

Filelist

Title Size
chelsea.mp4 chelsea.mp4 1.39 GB

Description

For fuck's sake...!!!

neshindmitriy...!!!

STOP MASTURBATING GODDAMIT...!!!

you little bastard...!!!

* The Rat Bastards Present *

Young Busty

YoungBusty videos feature exactly that, young busty babes. Watch hot teen girls with big tits get fucked in hardcore xxx action. Watch them tit fuck guys and get a warm load on their juicy melons like you've never seen before. These girls love their boobs and love to show them off...  
...

Chelsea

Published: 02.05.2016 Duration: 24 min
Niches: Anal, Brunettes, Hardcore, Babe, Big Tits, Blowjob, Cumshot
Performer(s): Chelsea
Site: YoungBusty

General
Complete name                            : chelsea.mp4
Format                                   : MPEG-4
Format profile                           : Base Media / Version 2
Codec ID                                 : mp42 (isom/mp41/avc1)
File size                                : 1.39 GiB
Duration                                 : 24mn 27s
Overall bit rate mode                    : Variable
Overall bit rate                         : 8 132 Kbps
Encoded date                             : UTC 2016-03-07 21:19:23
Tagged date                              : UTC 2016-03-07 21:19:23
Writing library                          : Apple QuickTime

Video
ID                                       : 1
Format                                   : AVC
Format/Info                              : Advanced Video Codec
Format profile                           : Main@L4
Format settings, CABAC                   : No
Format settings, ReFrames                : 3 frames
Codec ID                                 : avc1
Codec ID/Info                            : Advanced Video Coding
Duration                                 : 24mn 27s
Source duration                          : 24mn 27s
Bit rate mode                            : Variable
Bit rate                                 : 7 673 Kbps
Maximum bit rate                         : 8 001 Kbps
Width                                    : 1 920 pixels
Height                                   : 1 080 pixels
Display aspect ratio                     : 16:9
Frame rate mode                          : Constant
Frame rate                               : 25.000 fps
Standard                                 : Component
Color space                              : YUV
Chroma subsampling                       : 4:2:0
Bit depth                                : 8 bits
Scan type                                : Progressive
Bits/(Pixel*Frame)                       : 0.148
Stream size                              : 1.31 GiB (94%)
Source stream size                       : 1.37 GiB (98%)
Language                                 : English
Encoded date                             : UTC 2016-03-07 21:19:23
Tagged date                              : UTC 2016-03-07 21:19:23
Color range                              : Limited
mdhd_Duration                            : 1467760

Audio
ID                                       : 2
Format                                   : AAC
Format/Info                              : Advanced Audio Codec
Format profile                           : LC
Codec ID                                 : 40
Duration                                 : 24mn 27s
Bit rate mode                            : Variable
Bit rate                                 : 128 Kbps
Maximum bit rate                         : 134 Kbps
Channel(s)                               : 2 channels
Channel positions                        : Front: L R
Sampling rate                            : 44.1 KHz
Frame rate                               : 43.066 fps (1024 spf)
Compression mode                         : Lossy
Stream size                              : 22.4 MiB (2%)
Language                                 : English
Encoded date                             : UTC 2016-03-07 21:19:23
Tagged date                              : UTC 2016-03-07 21:19:23

Other #1
ID                                       : 3
Type                                     : Object description
Format                                   : System Core
Codec ID                                 : 2
Duration                                 : 24mn 27s
Language                                 : English
Encoded date                             : UTC 2016-03-07 21:19:23
Tagged date                              : UTC 2016-03-07 21:19:23
mdhd_Duration                            : 1000

Other #2
ID                                       : 4
Type                                     : Scene description
Format                                   : System Core
Codec ID                                 : 2
Duration                                 : 24mn 27s
Language                                 : English
Encoded date                             : UTC 2016-03-07 21:19:23
Tagged date                              : UTC 2016-03-07 21:19:23
mdhd_Duration                            : 1000

* the video shows scenes of oral blow job, some doggy style fucking, some anal fucking, they throw in some prone bone, some reverse cowgirl, and basically the dude just hammering away at her asshole...