[YoungBusty] Casey [The Rat Bastards] (1.49 GB)

[YoungBusty]  Casey  [The Rat Bastards]

Filelist

Title Size
casey.mp4
casey.mp4 1.42 GB

Description

For fuck's sake...!!!

neshindmitriy...!!!

STOP MASTURBATING GODDAMIT...!!!

you little bastard...!!!

* The Rat Bastards Present *

Young Busty

YoungBusty videos feature exactly that, young busty babes. Watch hot teen girls with big tits get fucked in hardcore xxx action. Watch them tit fuck guys and get a warm load on their juicy melons like you've never seen before. These girls love their boobs and love to show them off...  
...

Casey

[bPublished: 30.03.2016 Duration: 25 min
Niches: Anal, Brunettes, Hardcore, Shaved, Teens, Big Tits, Facial, Blowjob, Cumshot
Performer(s): Casey F
Site: YoungBusty

[/b]

General
Complete name                            : casey.mp4
Format                                   : MPEG-4
Format profile                           : Base Media / Version 2
Codec ID                                 : mp42 (isom/mp41/avc1)
File size                                : 1.42 GiB
Duration                                 : 24mn 57s
Overall bit rate mode                    : Variable
Overall bit rate                         : 8 132 Kbps
Encoded date                             : UTC 2016-03-07 23:38:13
Tagged date                              : UTC 2016-03-07 23:38:13
Writing library                          : Apple QuickTime

Video
ID                                       : 1
Format                                   : AVC
Format/Info                              : Advanced Video Codec
Format profile                           : Main@L4
Format settings, CABAC                   : No
Format settings, ReFrames                : 3 frames
Format settings, GOP                     : M=2, N=100
Codec ID                                 : avc1
Codec ID/Info                            : Advanced Video Coding
Duration                                 : 24mn 57s
Source duration                          : 24mn 57s
Bit rate mode                            : Variable
Bit rate                                 : 7 673 Kbps
Maximum bit rate                         : 8 001 Kbps
Width                                    : 1 920 pixels
Height                                   : 1 080 pixels
Display aspect ratio                     : 16:9
Frame rate mode                          : Constant
Frame rate                               : 25.000 fps
Standard                                 : Component
Color space                              : YUV
Chroma subsampling                       : 4:2:0
Bit depth                                : 8 bits
Scan type                                : Progressive
Bits/(Pixel*Frame)                       : 0.148
Stream size                              : 1.34 GiB (94%)
Source stream size                       : 1.39 GiB (98%)
Language                                 : English
Encoded date                             : UTC 2016-03-07 23:38:13
Tagged date                              : UTC 2016-03-07 23:38:13
Color range                              : Limited
mdhd_Duration                            : 1497440

Audio
ID                                       : 2
Format                                   : AAC
Format/Info                              : Advanced Audio Codec
Format profile                           : LC
Codec ID                                 : 40
Duration                                 : 24mn 57s
Bit rate mode                            : Variable
Bit rate                                 : 128 Kbps
Maximum bit rate                         : 134 Kbps
Channel(s)                               : 2 channels
Channel positions                        : Front: L R
Sampling rate                            : 44.1 KHz
Frame rate                               : 43.066 fps (1024 spf)
Compression mode                         : Lossy
Stream size                              : 22.8 MiB (2%)
Language                                 : English
Encoded date                             : UTC 2016-03-07 23:38:13
Tagged date                              : UTC 2016-03-07 23:38:13

Other #1
ID                                       : 3
Type                                     : Object description
Format                                   : System Core
Codec ID                                 : 2
Duration                                 : 24mn 57s
Language                                 : English
Encoded date                             : UTC 2016-03-07 23:38:13
Tagged date                              : UTC 2016-03-07 23:38:13
mdhd_Duration                            : 1000

Other #2
ID                                       : 4
Type                                     : Scene description
Format                                   : System Core
Codec ID                                 : 2
Duration                                 : 24mn 57s
Language                                 : English
Encoded date                             : UTC 2016-03-07 23:38:13
Tagged date                              : UTC 2016-03-07 23:38:13
mdhd_Duration                            : 1000

* we are treated to some scenes of anal play with her dildo, and then she throws in some oral blow job action, some standing doggy is sprinkled into the mix, then topped off with some four-on-the-floor doggy style,  some cowgirls action, some reverse cowgirl, and of course, some vanilla missionary style fucking too...