[YoungBusty] Brigette [The Rat Bastards] (1.63 GB)

[YoungBusty]  Brigette  [The Rat Bastards]

Filelist

Title Size
brigitte.mp4
brigitte.mp4 1.55 GB

Description

For fuck's sake...!!!

neshindmitriy...!!!

STOP MASTURBATING GODDAMIT...!!!

you little bastard...!!!

* The Rat Bastards Present *

Young Busty

YoungBusty videos feature exactly that, young busty babes. Watch hot teen girls with big tits get fucked in hardcore xxx action. Watch them tit fuck guys and get a warm load on their juicy melons like you've never seen before. These girls love their boobs and love to show them off...  
...

Brigitte

Published: 15.01.2016 Duration: 27 min
Niches: Anal, Brunettes, Cum Shot, Hardcore, Masturbation, Big Tits, Facial, Blowjob
Performer(s): Brigitte D
Site: YoungBusty

General
Complete name                            : brigitte.mp4
Format                                   : MPEG-4
Format profile                           : Base Media / Version 2
Codec ID                                 : mp42 (isom/mp41/avc1)
File size                                : 1.55 GiB
Duration                                 : 27mn 13s
Overall bit rate mode                    : Variable
Overall bit rate                         : 8 133 Kbps
Encoded date                             : UTC 2016-01-12 21:56:50
Tagged date                              : UTC 2016-01-12 21:56:50
Writing library                          : Apple QuickTime

Video
ID                                       : 1
Format                                   : AVC
Format/Info                              : Advanced Video Codec
Format profile                           : Main@L4
Format settings, CABAC                   : No
Format settings, ReFrames                : 3 frames
Format settings, GOP                     : M=2, N=100
Codec ID                                 : avc1
Codec ID/Info                            : Advanced Video Coding
Duration                                 : 27mn 13s
Source duration                          : 27mn 13s
Bit rate mode                            : Variable
Bit rate                                 : 7 674 Kbps
Maximum bit rate                         : 8 001 Kbps
Width                                    : 1 920 pixels
Height                                   : 1 080 pixels
Display aspect ratio                     : 16:9
Frame rate mode                          : Constant
Frame rate                               : 25.000 fps
Standard                                 : Component
Color space                              : YUV
Chroma subsampling                       : 4:2:0
Bit depth                                : 8 bits
Scan type                                : Progressive
Bits/(Pixel*Frame)                       : 0.148
Stream size                              : 1.46 GiB (94%)
Source stream size                       : 1.52 GiB (98%)
Language                                 : English
Encoded date                             : UTC 2016-01-12 21:56:50
Tagged date                              : UTC 2016-01-12 21:56:50
Color range                              : Limited
mdhd_Duration                            : 1633280

Audio
ID                                       : 2
Format                                   : AAC
Format/Info                              : Advanced Audio Codec
Format profile                           : LC
Codec ID                                 : 40
Duration                                 : 27mn 13s
Source duration                          : 27mn 13s
Bit rate mode                            : Variable
Bit rate                                 : 128 Kbps
Maximum bit rate                         : 134 Kbps
Channel(s)                               : 2 channels
Channel positions                        : Front: L R
Sampling rate                            : 44.1 KHz
Frame rate                               : 43.066 fps (1024 spf)
Compression mode                         : Lossy
Stream size                              : 24.9 MiB (2%)
Source stream size                       : 24.9 MiB (2%)
Language                                 : English
Encoded date                             : UTC 2016-01-12 21:56:50
Tagged date                              : UTC 2016-01-12 21:56:50

Other #1
ID                                       : 3
Type                                     : Object description
Format                                   : System Core
Codec ID                                 : 2
Duration                                 : 27mn 13s
Language                                 : English
Encoded date                             : UTC 2016-01-12 21:56:50
Tagged date                              : UTC 2016-01-12 21:56:50
mdhd_Duration                            : 1000

Other #2
ID                                       : 4
Type                                     : Scene description
Format                                   : System Core
Codec ID                                 : 2
Duration                                 : 27mn 13s
Language                                 : English
Encoded date                             : UTC 2016-01-12 21:56:50
Tagged date                              : UTC 2016-01-12 21:56:50
mdhd_Duration                            : 1000

*  we are treated to scenes of oral blow job, then some standing doggy style fucking, some four-on-the-floor doggy style is added, they even throw in some cowgirl, reverse cowgirl, and tempt you with some prone bone action as well...