Virtualporn360 ~ Dungeon High Heels Fetish + 3 vids (7.6 GB)

Virtualporn360 ~ Dungeon High Heels Fetish  + 3 vids

Filelist

Title Size
Dominator punishes hot college babe in lesbian BDSM/Dominator punishes hot college babe in lesbian BDSM.mp4
Dominator punishes hot college babe in lesbian BDSM/Dominator punishes hot college babe in lesbian BDSM.mp4 1.76 GB
Dominator punishes hot college babe in lesbian BDSM.mp4_snapshot_00.12_[2016.12.06_18.50.08].jpg Dominator punishes hot college babe in lesbian BDSM.mp4_snapshot_00.12_[2016.12.06_18.50.08].jpg 525 KB
Dominator punishes hot college babe in lesbian BDSM.mp4_thumbs_[2016.12.06_18.52.32].jpg Dominator punishes hot college babe in lesbian BDSM.mp4_thumbs_[2016.12.06_18.52.32].jpg 1.46 MB
Raw brunette and readhead duo bdsm sex.mp4_snapshot_08.04_[2016.12.06_18.53.37].jpg Raw brunette and readhead duo bdsm sex.mp4_snapshot_08.04_[2016.12.06_18.53.37].jpg 2.45 MB
Raw brunette and readhead duo bdsm sex.mp4_thumbs_[2016.12.06_18.53.45].jpg Raw brunette and readhead duo bdsm sex.mp4_thumbs_[2016.12.06_18.53.45].jpg 1.48 MB
Raw brunette and readhead duo bdsm sex/Raw brunette and readhead duo bdsm sex.mp4 Raw brunette and readhead duo bdsm sex/Raw brunette and readhead duo bdsm sex.mp4 1.95 GB
The Dungeon. High Heels Fetish.mp4_snapshot_00.52_[2016.12.06_18.54.18].jpg The Dungeon. High Heels Fetish.mp4_snapshot_00.52_[2016.12.06_18.54.18].jpg 2.24 MB
The Dungeon. High Heels Fetish.mp4_thumbs_[2016.12.06_18.54.23].jpg The Dungeon. High Heels Fetish.mp4_thumbs_[2016.12.06_18.54.23].jpg 1.33 MB
The Dungeon. High Heels Fetish/The Dungeon. High Heels Fetish.mp4
The Dungeon. High Heels Fetish/The Dungeon. High Heels Fetish.mp4 1.09 GB
The-hot-house-maid-and-her-masters-pussy-1.mp4_snapshot_10.47_[2016.12.06_18.55.53].jpg The-hot-house-maid-and-her-masters-pussy-1.mp4_snapshot_10.47_[2016.12.06_18.55.53].jpg 2.23 MB
The-hot-house-maid-and-her-masters-pussy-1.mp4_thumbs_[2016.12.06_18.56.00].jpg The-hot-house-maid-and-her-masters-pussy-1.mp4_thumbs_[2016.12.06_18.56.00].jpg 1.54 MB
The-hot-house-maid-and-her-masters-pussy-1/The-hot-house-maid-and-her-masters-pussy-1.mp4 The-hot-house-maid-and-her-masters-pussy-1/The-hot-house-maid-and-her-masters-pussy-1.mp4 2.44 GB

Description


.

VirtualPorn360 4 videos for cligbit

Navigation
Title Image
Description of the Content
Large Screenshots
Properties
Thumbnail-Screens
Notes

The Dungeon +3 more videos
360 degrees mono

Contents of this Torrent
4 videos
The Dungeon. High Heels Fetish

housemaid
college girl
brunette
(Last 3 are not so exciting for cligbit)

Official Description
Girl in high heels does some domination walks around in high heels and whips you a little bit and fucks you while you are strapped to the floor

The other 3 videos are in regular rooms with no slapping or whipping. Just simple stuff.

Personal Comment
I am more into StockingsVr.com but promised cligbit to up this

click on the images to enlarge them

Properties: Show$$Fetish\The Dungeon. High Heels Fetish.mp4
Format                      : MPEG-4
Format profile              : Base Media / Version 2
Codec ID                    : mp42 (mp42/mp41)
File size                   : 1.09 GiB
Duration                    : 12 min 39 s
Overall bit rate            : 12.3 Mb/s
Encoded date                : UTC 2016-08-16 16:57:46
Tagged date                 : UTC 2016-08-16 17:00:19
쯙IM                         : 00:00:00:00
쯙SC                         : 60
쯙SZ                         : 1

Video
ID                          : 1
Format                      : AVC
Format/Info                 : Advanced Video Codec
Format profile              : Main@L5.2
Format settings, CABAC      : Yes
Format settings, ReFrames   : 3 frames
Codec ID                    : avc1
Codec ID/Info               : Advanced Video Coding
Duration                    : 12 min 39 s
Bit rate                    : 12.0 Mb/s
Width                       : 4 096 pixels
Height                      : 2 048 pixels
Display aspect ratio        : 2.000
Frame rate mode             : Constant
Frame rate                  : 60.000 FPS
Standard                    : NTSC
Color space                 : YUV
Chroma subsampling          : 4:2:0
Bit depth                   : 8 bits
Scan type                   : Progressive
Bits/(Pixel*Frame)          : 0.024
Stream size                 : 1.06 GiB (97%)
Language                    : English
Encoded date                : UTC 2016-08-16 16:57:46
Tagged date                 : UTC 2016-08-16 16:57:46
Color range                 : Limited
Color primaries             : BT.709
Transfer characteristics    : BT.709
Matrix coefficients         : BT.709

Audio
ID                          : 2
Format                      : AAC
Format/Info                 : Advanced Audio Codec
Format profile              : LC
Codec ID                    : 40
Duration                    : 12 min 39 s
Source duration             : 12 min 39 s
Bit rate mode               : Constant
Bit rate                    : 317 kb/s
Channel(s)                  : 2 channels
Channel positions           : Front: L R
Sampling rate               : 48.0 kHz
Frame rate                  : 46.875 FPS (1024 spf)
Compression mode            : Lossy
Stream size                 : 28.7 MiB (3%)
Source stream size          : 28.7 MiB (3%)
Language                    : English
Encoded date                : UTC 2016-08-16 16:57:46
Tagged date                 : UTC 2016-08-16 16:57:46

(s)$$

Screens: Show$$ $$